rarbg torrents
Guest (Login) Torrents Box office Catalog Top 10 News

View all
Movies
XXX
TV Shows
Games
Music
Software
Android
 
Trailers
Catalog
Box Office
 
New index
 

Pushpa The Rise Part 1 (2021) 1080p ORG Hindi Pre-DVDRip x264 AA

Torrent: Pushpa The Rise Part 1 (2021) 1080p ORG Hindi Pre-DVDRip x264 AA
VPN:
Downloading torrents is getting riskier every day. Use a VPN to make yourself hidden while downloading torrents.
By using a VPN , your ISP and Government Agencies will not be able to spy on you, neither would they be able to track your online activity!
Description:
Visit Us = https://www.full4movies.cfd/

General
Complete name                  : Pushpa The Rise Part 1 (2021) 1080p ORG Hindi Pre-DVDRip x264 AAC DD 2.0 By Full4Movies.mkv
Format                         : Matroska
Format version                 : Version 4
File size                      : 3.28 GiB
Duration                       : 2 h 54 min
Overall bit rate               : 2 695 kb/s
Movie name                     : www.Full4Movies.cfd
Encoded date                   : UTC 2021-12-17 15:00:48
Writing application            : mkvmerge v8.3.0 ('Over the Horizon') 64bit
Writing library                : libebml v1.3.1 + libmatroska v1.4.2
Attachments                    : 383845052472320.jpg

Video
ID                             : 1
Format                         : AVC
Format/Info                    : Advanced Video Codec
Format profile                 : 
Format settings                : CABAC / 4 Ref Frames
Format settings, CABAC         : Yes
Format settings, Reference fra : 4 frames
Codec ID                       : V_MPEG4/ISO/AVC
Duration                       : 2 h 54 min
Bit rate                       : 2 500 kb/s
Width                          : 1 920 pixels
Height                         : 764 pixels
Display aspect ratio           : 2.513
Frame rate mode                : Constant
Frame rate                     : 30.000 FPS
Color space                    : YUV
Chroma subsampling             : 4:2:0
Bit depth                      : 8 bits
Scan type                      : Progressive
Bits/(Pixel*Frame)             : 0.057
Stream size                    : 3.04 GiB (93%)
Writing library                : x264 core 148 r2708 86b7198
Default                        : Yes
Forced                         : No
Color range                    : Limited
Color primaries                : BT.709
Transfer characteristics       : BT.709
Matrix coefficients            : BT.709

Audio
ID                             : 2
Format                         : AAC LC
Format/Info                    : Advanced Audio Codec Low Complexity
Codec ID                       : A_AAC-2
Duration                       : 2 h 54 min
Bit rate                       : 192 kb/s
Channel(s)                     : 2 channels
Channel layout                 : L R
Sampling rate                  : 44.1 kHz
Frame rate                     : 43.066 FPS (1024 SPF)
Compression mode               : Lossy
Delay relative to video        : -23 ms
Stream size                    : 240 MiB (7%)
Language                       : English
Default                        : Yes
Forced                         : No
Rating:

Rating: 3.5/5 (25 votes cast)

Category: Video
Size: 3.28 GiB
Show Files ยป
5 files
Added: 2021-12-17 16:13 GMT
Hit&Run: 97%
Tags: OpenSight Software FlashFXP 3795 Multilingual Incl Keymaker and Patch CORE
Release name: shmasti



SUPPORT : [email protected] FAQ/Rules DMCA : [email protected] DMCA INFO HERE : DMCA Info

Sat, 05 Feb 2022 12:20:28 +0100

a quiet place "Venus Lux" Maddoxx yumi ncis s19

Powered by hamsters 1.0
By using this site you agree to and accept our user agreement. If you havent read the user agreement please do so here