rarbg torrents
Guest (Login) Torrents Box office Catalog Top 10 News

View all
Movies
XXX
TV Shows
Games
Music
Software
Android
 
Trailers
Catalog
Box Office
 
New index
 

Injustice 2021 576p BRRip x265 AAC-SSN

Torrent: Injustice 2021 576p BRRip x265 AAC-SSN
VPN:
Downloading torrents is getting riskier every day. Use a VPN to make yourself hidden while downloading torrents.
By using a VPN , your ISP and Government Agencies will not be able to spy on you, neither would they be able to track your online activity!
Description:
~~~~~~~~~~~~~~~~~~~~~~~~~~~~~~~~~~~~~~~~~~~~~~~~~~~~~~~~~~~~~~~~~~~~~~~~~~~~~~~~~~~

Torrent downloaded from  https://www.torrenting.com

~~~~~~~~~~~~~~~~~~~~~~~~~~~~~~~~~~~~~~~~~~~~~~~~~~~~~~~~~~~~~~~~~~~~~~~~~~~~~~~~~~~

Torrenting.com is a safe and virus free torrent site with SUPER FAST DOWNLOAD SPEED ! ! !

~~~~~~~~~~~~~~~~~~~~~~~~~~~~~~~~~~~~~~~~~~~~~~~~~~~~~~~~~~~~~~~~~~~~~~~~~~~~~~~~~~~
.
.General
Complete name                            : Injustice 2021 576p BRRip x265 AAC-SSN.mkv
Format                                   : Matroska
Format version                           : Version 4
File size                                : 1.03 GiB
Duration                                 : 1 h 18 min
Overall bit rate                         : 1 878 kb/s
Encoded date                             : UTC 2021-11-24 12:27:14
Writing application                      : mkvmerge v63.0.0 ('Everything') 64-bit
Writing library                          : libebml v1.4.2 + libmatroska v1.6.4

Video
ID                                       : 1
Format                                   : HEVC
Format/Info                              : High Efficiency Video Coding
Format profile                           : @Main
Codec ID                                 : V_MPEGH/ISO/HEVC
Duration                                 : 1 h 18 min
Bit rate                                 : 1 475 kb/s
Width                                    : 1 024 pixels
Height                                   : 576 pixels
Display aspect ratio                     : 16:9
Frame rate mode                          : Constant
Frame rate                               : 23.976 (24000/1001) FPS
Original frame rate                      : 23.000 FPS
Color space                              : YUV
Chroma subsampling                       : 4:2:0
Bit depth                                : 8 bits
Bits/(Pixel*Frame)                       : 0.104
Stream size                              : 829 MiB (79%)
Default                                  : Yes
Forced                                   : No

Audio
ID                                       : 2
Format                                   : AAC LC
Format/Info                              : Advanced Audio Codec Low Complexity
Codec ID                                 : A_AAC-2
Duration                                 : 1 h 18 min
Bit rate                                 : 401 kb/s
Channel(s)                               : 6 channels
Channel layout                           : C L R Ls Rs LFE
Sampling rate                            : 32.0 kHz
Frame rate                               : 31.250 FPS (1024 SPF)
Compression mode                         : Lossy
Stream size                              : 225 MiB (21%)
Language                                 : English
Default                                  : Yes
Forced                                   : No
Rating:

Rating: 3.5/5 (25 votes cast)

Category: Video
Size: 1.03 GiB
Show Files ยป
5 files
Added: 2021-11-24 13:46 GMT
Hit&Run: 97%
Tags: OpenSight Software FlashFXP 3795 Multilingual Incl Keymaker and Patch CORE
Release name: TvTeam



SUPPORT : [email protected] FAQ/Rules DMCA : [email protected] DMCA INFO HERE : DMCA Info

Sat, 05 Feb 2022 12:20:28 +0100

a quiet place "Venus Lux" Maddoxx yumi ncis s19

Powered by hamsters 1.0
By using this site you agree to and accept our user agreement. If you havent read the user agreement please do so here