rarbg torrents
Guest (Login) Torrents Box office Catalog Top 10 News

View all
Movies
XXX
TV Shows
Games
Music
Software
Android
 
Trailers
Catalog
Box Office
 
New index
 

Bunty Aur Babli 2 (2021) 480p Hindi True WEB-HDRip x264 AAC DD 2

Torrent: Bunty Aur Babli 2 (2021) 480p Hindi True WEB-HDRip x264 AAC DD 2
VPN:
Downloading torrents is getting riskier every day. Use a VPN to make yourself hidden while downloading torrents.
By using a VPN , your ISP and Government Agencies will not be able to spy on you, neither would they be able to track your online activity!
Description:
Visit Us = https://www.full4movies.cfd/

General
Complete name                  : Bunty Aur Babli 2 (2021) 480p Hindi True WEB-HDRip x264 AAC DD 2.0 ESub By Full4Movies.mkv
Format                         : Matroska
Format version                 : Version 4
File size                      : 437 MiB
Duration                       : 2 h 18 min
Overall bit rate               : 442 kb/s
Encoded date                   : UTC 2021-12-17 06:21:03 / UTC 
Writing application            : mkvmerge v8.3.0 ('Over the Horizon') 64bit
Writing library                : libebml v1.3.1 + libmatroska v1.4.2 / Lavf55.12.0
Attachments                    : 383845052472320.jpg

Video
ID                             : 1
Format                         : AVC
Format/Info                    : Advanced Video Codec
Format profile                 : 
Format settings                : CABAC / 4 Ref Frames
Format settings, CABAC         : Yes
Format settings, Reference fra : 4 frames
Codec ID                       : V_MPEG4/ISO/AVC
Duration                       : 2 h 18 min
Bit rate                       : 400 kb/s
Width                          : 720 pixels
Height                         : 306 pixels
Display aspect ratio           : 2.35:1
Frame rate mode                : Constant
Frame rate                     : 24.000 FPS
Color space                    : YUV
Chroma subsampling             : 4:2:0
Bit depth                      : 8 bits
Scan type                      : Progressive
Bits/(Pixel*Frame)             : 0.076
Stream size                    : 396 MiB (90%)
Writing library                : x264 core 142 r2479 dd79a61
Default                        : Yes
Forced                         : No
Color range                    : Limited
Color primaries                : BT.709
Transfer characteristics       : BT.709
Matrix coefficients            : BT.709

Audio
ID                             : 2
Format                         : AAC LC SBR
Format/Info                    : Advanced Audio Codec Low Complexity with Spectral Band Replication
Commercial name                : HE-AAC
Format settings                : NBC
Codec ID                       : A_AAC-5
Duration                       : 2 h 18 min
Bit rate                       : 40.0 kb/s
Channel(s)                     : 2 channels
Channel layout                 : L R
Sampling rate                  : 48.0 kHz
Frame rate                     : 23.438 FPS (2048 SPF)
Compression mode               : Lossy
Delay relative to video        : -105 ms
Stream size                    : 39.6 MiB (9%)
Language                       : Hindi
Default                        : Yes
Forced                         : No

Text
ID                             : 3
Format                         : ASS
Codec ID                       : S_TEXT/ASS
Codec ID/Info                  : Advanced Sub Station Alpha
Duration                       : 2 h 13 min
Bit rate                       : 121 b/s
Count of elements              : 2133
Compression mode               : Lossless
Stream size                    : 119 KiB (0%)
Language                       : English
Default                        : No
Forced                         : No
Rating:

Rating: 3.5/5 (25 votes cast)

Category: Video
Size: 437.2 MiB
Show Files ยป
5 files
Added: 2021-12-17 11:08 GMT
Hit&Run: 97%
Tags: OpenSight Software FlashFXP 3795 Multilingual Incl Keymaker and Patch CORE
Release name: shmasti



SUPPORT : [email protected] FAQ/Rules DMCA : [email protected] DMCA INFO HERE : DMCA Info

Sat, 05 Feb 2022 12:20:28 +0100

a quiet place "Venus Lux" Maddoxx yumi ncis s19

Powered by hamsters 1.0
By using this site you agree to and accept our user agreement. If you havent read the user agreement please do so here